<?xml version="1.0" standalone="no"?>
<!DOCTYPE svg PUBLIC "-//W3C//DTD SVG 1.1//EN" "http://www.w3.org/Graphics/SVG/1.1/DTD/svg11.dtd" >
<svg xmlns="http://www.w3.org/2000/svg">
<metadata>Generated by IcoMoon</metadata>
<defs>
<font id="icomoon" horiz-adv-x="1024">
<font-face units-per-em="1024" ascent="960" descent="-64" />
<missing-glyph horiz-adv-x="1024" />
<glyph unicode="&#x20;" horiz-adv-x="512" d="" />
<glyph unicode="&#xe900;" glyph-name="box" d="M983.458 734.058l-464.936 224.452c-4.122 1.988-8.922 1.988-13.042 0l-464.938-224.452c-5.184-2.502-8.478-7.752-8.478-13.508v-545.098c0-5.756 3.294-11.006 8.478-13.508l464.936-224.452c2.060-0.994 4.292-1.492 6.522-1.492s4.46 0.498 6.522 1.492l464.936 224.452c5.184 2.502 8.478 7.752 8.478 13.508v545.096c0 5.76-3.296 11.006-8.478 13.51zM512 928.344l430.434-207.794-124.774-60.236c-0.79 0.602-1.624 1.158-2.54 1.6l-427.51 206.38 124.39 60.050zM353.734 851.334l429.808-207.492-88.030-42.498-429.63 207.408 87.852 42.582zM793.598 615.386v-157.092l-82.226-39.696v157.092l82.226 39.696zM961.936 184.864l-434.936-209.964v511.784l103.746 50.084c7.46 3.602 10.588 12.568 6.986 20.030-3.602 7.458-12.568 10.59-20.030 6.986l-105.702-51.030-41.592 20.080c-7.462 3.606-16.428 0.474-20.030-6.986s-0.474-16.428 6.986-20.030l39.636-19.134v-511.784l-434.936 209.968v511.784l331.2-159.89c2.102-1.016 4.324-1.496 6.51-1.496 5.576 0 10.932 3.124 13.518 8.482 3.602 7.46 0.474 16.428-6.986 20.030l-324.74 156.772 149.010 71.936 450.588-217.526c0.066-0.092 0.14-0.174 0.208-0.264v-179.998c0-5.162 2.654-9.96 7.026-12.706 2.428-1.524 5.198-2.294 7.976-2.294 2.224 0 4.454 0.494 6.52 1.492l112.226 54.178c5.184 2.502 8.478 7.75 8.478 13.508v180.99l138.338 66.784v-511.786zM185.852 243.042l-68.23 32.938c-7.464 3.606-16.428 0.474-20.030-6.986s-0.474-16.428 6.986-20.030l68.23-32.938c2.102-1.016 4.324-1.496 6.51-1.496 5.576 0 10.932 3.124 13.518 8.482 3.604 7.462 0.476 16.426-6.984 20.030zM248.646 283.916l-130.93 63.208c-7.462 3.602-16.428 0.474-20.030-6.988-3.6-7.46-0.472-16.428 6.988-20.030l130.93-63.208c2.102-1.014 4.324-1.496 6.51-1.496 5.576 0 10.932 3.124 13.518 8.482 3.602 7.464 0.474 16.432-6.986 20.032z" />
<glyph unicode="&#xe901;" glyph-name="email" d="M0 808v-720h1024v720h-1024zM913.906 748l-401.906-350.208-401.906 350.208h803.812zM60 712.066l303.248-264.24-303.248-263.942v528.182zM110.162 148l298.756 260.032 103.082-89.824 103.084 89.824 298.754-260.032h-803.676zM964 183.882l-303.248 263.944 303.248 264.24v-528.184z" />
<glyph unicode="&#xe902;" glyph-name="email-2" d="M928 832h-832c-53.020 0-96-42.98-96-96v-128h64v120.64l429.44-306.56c11.11-7.91 26.010-7.91 37.12 0l429.44 306.56v-568.64c0-17.674-14.326-32-32-32h-800v-64h800c53.020 0 96 42.98 96 96v576c0 53.020-42.98 96-96 96zM512 487.36l-392.96 280.64h785.92l-392.96-280.64zM0 128h64v-64h-64v64zM0 288h448v-64h-448v64zM512 288h64v-64h-64v64zM0 448h64v-64h-64v64zM128 448h192v-64h-192v64z" />
<glyph unicode="&#xe903;" glyph-name="football" d="M635.86 862.216c-6.152 5.542-15.636 5.048-21.186-1.106-5.542-6.156-5.046-15.64 1.108-21.184 13.022-11.728 25.042-24.362 36.046-37.734l-43.494-133.84-87.722-32.064-124.612 90.534v96.212l113.688 82.576c19.81-7.8 38.95-17.39 57.15-28.774 7.022-4.394 16.28-2.26 20.67 4.764 4.392 7.024 2.26 16.28-4.764 20.672-60.384 37.766-130.146 57.728-201.744 57.728-66.27 0-131.518-17.26-188.688-49.916-55.368-31.626-102.342-77.064-135.84-131.406-4.346-7.052-2.154-16.292 4.898-20.64 2.454-1.512 5.172-2.234 7.858-2.234 5.032 0 9.948 2.532 12.784 7.13 2.018 3.274 4.096 6.508 6.218 9.71l35.794-110.144-93.678-68.040c1.69 39.168 9.798 77.342 24.188 113.682 3.050 7.704-0.72 16.418-8.422 19.47-7.7 3.046-16.42-0.72-19.468-8.424-17.682-44.638-26.644-91.804-26.644-140.188 0-210.084 170.916-381 381-381s381 170.916 381 381c0 107.788-45.976 211.016-126.14 283.216zM676.91 390.406l-140.852 0.372-53.534 70.166 47.74 146.93 87.722 32.064 113.34-82.32c-3.696-61.266-23.164-118.348-54.416-167.212zM673.732 772.53c34.792-52.688 55.064-114.224 57.896-178.052l-93.652 68.022zM454.932 473.1h-147.864l-45.694 140.628 119.626 86.912 119.624-86.912zM474.714 917.286l-93.714-68.070-93.692 68.054c30.362 8.38 61.892 12.73 93.692 12.73 31.902 0 63.396-4.34 93.714-12.714zM110.17 802.198c27.086 32.82 60.002 60.692 97.020 81.838 14.518 8.292 29.62 15.466 45.134 21.566l113.676-82.568v-96.212l-124.61-90.536-87.722 32.064zM144.010 639.94l87.722-32.064 47.74-146.93-53.83-70.556h-140.542c-31.258 48.868-50.728 105.956-54.43 167.23zM106.602 360.39h115.566l35.784-110.11c-59.914 22.5-112.088 60.93-151.35 110.11zM498.622 248.296l9.126 28.080c2.56 7.878-1.75 16.34-9.628 18.902-7.876 2.562-16.34-1.75-18.902-9.63l-15.53-47.784c-26.528-6.43-54.212-9.864-82.688-9.864-30.338 0-59.786 3.872-87.884 11.142l-43.354 133.402 53.83 70.556h154.814l50.478-66.16-9.822-30.224c-2.56-7.878 1.752-16.34 9.63-18.902 1.54-0.5 3.102-0.738 4.638-0.738 6.322 0 12.202 4.030 14.262 10.368l7.584 23.338 120.28-0.318c-40.448-50.696-94.616-89.972-156.834-112.168zM289.522 183.94c-5.86 5.858-15.356 5.858-21.214 0s-5.858-15.356 0-21.212l133.806-133.806c2.93-2.928 6.77-4.394 10.608-4.394s7.678 1.464 10.608 4.394c5.858 5.858 5.858 15.356 0 21.212zM495.316 181.342c-5.86 5.858-15.356 5.858-21.214 0s-5.858-15.356 0-21.212l130.012-130.010c2.93-2.928 6.77-4.394 10.608-4.394s7.678 1.464 10.608 4.394c5.858 5.858 5.858 15.356 0 21.212zM952.972 298.41c3.838 0 7.678 1.464 10.608 4.394 5.858 5.858 5.858 15.356 0 21.212l-130.012 130.012c-5.86 5.858-15.356 5.858-21.214 0s-5.858-15.356 0-21.212l130.012-130.012c2.928-2.93 6.768-4.394 10.606-4.394zM960.294 492.454c2.93-2.93 6.768-4.394 10.608-4.394 3.838 0 7.678 1.464 10.608 4.394 5.858 5.858 5.858 15.356 0 21.212l-165.87 165.872c-5.858 5.858-15.354 5.86-21.214 0-5.858-5.858-5.858-15.356 0-21.212zM948.764 136.838c2.93-2.93 6.768-4.394 10.608-4.394 3.838 0 7.678 1.464 10.608 4.394 5.858 5.858 5.858 15.356 0 21.212l-79.284 79.284c-5.858 5.858-15.354 5.86-21.214 0-5.858-5.858-5.858-15.356 0-21.212zM695.748 130.25c-5.86 5.858-15.356 5.858-21.214 0s-5.858-15.356 0-21.212l79.286-79.286c2.93-2.928 6.77-4.394 10.608-4.394s7.678 1.464 10.608 4.394c5.858 5.858 5.858 15.356 0 21.212zM1019.606-38.394l-309.46 309.462c-5.858 5.858-15.354 5.858-21.214 0-5.858-5.858-5.858-15.356 0-21.212l309.46-309.462c2.93-2.928 6.768-4.394 10.608-4.394 3.838 0 7.678 1.464 10.608 4.394 5.856 5.856 5.856 15.356-0.002 21.212z" />
<glyph unicode="&#xe904;" glyph-name="heart-shape-outline" d="M951.427 815.997c-48.385 47.247-115.234 70.86-200.577 70.86-23.617 0-47.721-4.095-72.287-12.281-24.576-8.192-47.439-19.244-68.562-33.148-21.151-13.9-39.329-26.954-54.578-39.141-15.231-12.191-29.712-25.146-43.424-38.856-13.718 13.71-28.195 26.665-43.428 38.856-15.243 12.187-33.428 25.232-54.576 39.141-21.143 13.91-44.002 24.954-68.572 33.148-24.568 8.184-48.668 12.281-72.285 12.281-85.336 0-152.189-23.619-200.569-70.86-48.379-47.237-72.571-112.756-72.571-196.566 0-25.525 4.483-51.82 13.432-78.854 8.949-27.048 19.146-50.099 30.572-69.143 11.424-19.042 24.38-37.611 38.856-55.709 14.477-18.095 25.056-30.566 31.715-37.423 6.665-6.857 11.905-11.815 15.713-14.865l356.566-344.001c6.859-6.857 15.239-10.296 25.142-10.296s18.289 3.439 25.144 10.296l356 342.87c87.24 87.224 130.856 172.938 130.856 257.132 0.002 83.815-24.188 149.329-72.571 196.558zM843.426 416.013l-331.426-319.425-331.993 320.002c-71.24 71.222-106.854 138.849-106.854 202.85 0 30.853 4.095 58.094 12.281 81.708 8.192 23.617 18.668 42.385 31.429 56.289 12.763 13.908 28.285 25.232 46.57 34.001 18.295 8.76 36.198 14.667 53.719 17.713 17.521 3.042 36.184 4.565 55.997 4.565 19.806 0 41.144-4.852 64.001-14.569 22.853-9.713 43.9-21.904 63.136-36.569 19.24-14.675 35.716-28.387 49.436-41.144 13.712-12.769 25.136-24.476 34.281-35.144 6.853-8.384 16.194-12.575 27.998-12.575 11.809 0 21.139 4.191 28 12.575 9.143 10.668 20.575 22.38 34.287 35.144 13.714 12.757 30.192 26.463 49.424 41.144 19.24 14.665 40.287 26.856 63.152 36.569 22.849 9.715 44.192 14.569 64.001 14.569s38.466-1.523 55.995-4.565c17.527-3.044 35.43-8.953 53.719-17.713 18.287-8.766 33.809-20.099 46.568-34.001 12.761-13.904 23.241-32.672 31.433-56.289 8.178-23.613 12.273-50.855 12.273-81.708-0.004-64.001-35.806-131.816-107.428-203.427z" />
<glyph unicode="&#xe905;" glyph-name="large-paper-bag" d="M715.138 783.247c0.796 4.494 1.393 9.105 1.393 13.831v82.755c0 44.213-35.971 80.167-80.184 80.167h-248.695c-44.213 0-80.184-35.954-80.184-80.167v-82.755c0-4.726 0.597-9.337 1.393-13.831h-248.778v-767.046c0-44.213 35.971-80.201 80.184-80.201h743.464c44.213 0 80.184 35.987 80.184 80.201v767.046h-248.778zM373.805 797.078v82.755c0 7.612 6.219 13.831 13.848 13.831h248.695c7.629 0 13.848-6.219 13.848-13.831v-82.755c0-7.612-6.219-13.831-13.848-13.831h-248.695c-7.629 0-13.848 6.219-13.848 13.831zM897.58 16.201c0-7.645-6.219-13.864-13.848-13.864h-743.464c-7.629 0-13.848 6.219-13.848 13.864v700.71h771.159v-700.71z" />
<glyph unicode="&#xe906;" glyph-name="love" d="M939.17 798.536c-111.358 105.968-292.612 105.968-404.006 0.024l-23.162-22-23.138 21.99c-111.406 105.958-292.636 105.946-404.042 0-54.7-52.028-84.822-121.038-84.822-194.298 0-73.284 30.122-142.282 84.83-194.332l402.438-382.066c6.922-6.588 15.834-9.868 24.732-9.868s17.798 3.294 24.732 9.88l402.438 382.054c54.696 52.038 84.83 121.046 84.83 194.32 0 73.272-30.134 142.27-84.83 194.296zM889.658 462.018l-377.658-358.556-377.646 358.544c-40.302 38.324-62.494 88.842-62.494 142.234s22.192 103.91 62.494 142.234c42.038 40.002 97.25 59.99 152.474 59.99 55.236 0 110.472-20.012 152.51-60.014l47.906-45.5c13.868-13.186 35.63-13.186 49.5 0l47.918 45.524c84.088 79.992 220.896 79.992 304.984 0 40.29-38.326 62.494-88.842 62.494-142.234s-22.204-103.898-62.482-142.222z" />
<glyph unicode="&#xe907;" glyph-name="play-video" d="M938.664 771.18h-312.32l84.484 72.383c4.898 3.883 7.281 10.133 6.211 16.289-1.070 6.164-5.422 11.242-11.344 13.25-5.922 2-12.461 0.609-17.055-3.633l-119.469-102.398c-0.172-0.141-0.219-0.344-0.375-0.477-1.211-1.195-2.242-2.555-3.055-4.047-0.367-0.492-0.711-1.008-1.023-1.539-2.023-4.375-2.023-9.414 0-13.789 0.312-0.531 0.656-1.039 1.023-1.531 0.812-1.492 1.844-2.859 3.055-4.047 0.156-0.141 0.203-0.344 0.375-0.477l119.469-102.406c4.594-4.242 11.133-5.633 17.055-3.625 5.922 2 10.273 7.086 11.344 13.242s-1.312 12.406-6.211 16.297l-84.484 72.375h312.32c28.281 0 51.203-22.922 51.203-51.195v-580.273c0-28.273-22.922-51.195-51.203-51.195h-853.328c-28.281 0-51.203 22.922-51.203 51.195v580.273c0 28.273 22.922 51.195 51.203 51.195h221.867c9.422 0 17.062 7.641 17.062 17.070 0 9.422-7.641 17.062-17.062 17.062h-221.867c-47.109-0.055-85.281-38.227-85.336-85.328v-580.273c0.055-47.102 38.227-85.273 85.336-85.328h853.328c47.109 0.055 85.281 38.227 85.336 85.328v580.273c-0.055 47.102-38.227 85.273-85.336 85.328zM380.977 173.852c7.391-0.008 14.633 2.039 20.93 5.922l296.117 182.523c11.641 7.117 18.742 19.773 18.742 33.414 0 13.648-7.102 26.305-18.742 33.422l-296.117 182.492c-12.305 7.57-27.742 7.906-40.367 0.867-12.531-6.836-20.289-20.008-20.203-34.281v-364.992c-0.070-14.258 7.687-27.414 20.203-34.25 5.937-3.336 12.633-5.094 19.437-5.117zM375.469 578.211c-0.023 1.883 1.016 3.609 2.695 4.469 0.867 0.492 1.852 0.758 2.852 0.766 1.055 0 2.094-0.312 2.984-0.883l296.172-182.492c1.508-0.937 2.43-2.586 2.43-4.359 0-1.766-0.922-3.414-2.43-4.352l-296.172-182.508c-1.773-1.133-4.031-1.172-5.836-0.102-1.68 0.859-2.719 2.586-2.695 4.469z" />
<glyph unicode="&#xe908;" glyph-name="right-arrow" d="M743.156 728.843l-45.612-45.614 202.973-202.975h-900.517v-64.509h900.517l-202.973-202.973 45.612-45.614 280.844 280.844z" />
<glyph unicode="&#xe909;" glyph-name="send" d="M1024 960l-1024-576.001 327.251-121.203 504.751 473.203-383.93-517.954 0.312-0.116-0.382 0.116v-282.047l183.52 214.105 232.48-86.106z" />
<glyph unicode="&#xe90a;" glyph-name="shopping-cart" d="M810.779 234.772c-70.404 0-127.681-57.278-127.681-127.681s57.278-127.681 127.681-127.681 127.681 57.278 127.681 127.681-57.278 127.681-127.681 127.681zM810.779 56.019c-28.166 0-51.072 22.906-51.072 51.072s22.906 51.072 51.072 51.072c28.166 0 51.072-22.906 51.072-51.072s-22.906-51.072-51.072-51.072zM1015.86 728.249c-7.252 9.282-18.374 14.696-30.158 14.696h-749.26l-34.474 144.241c-4.124 17.236-19.536 29.404-37.258 29.404h-126.405c-21.156 0.002-38.304-17.146-38.304-38.302s17.148-38.304 38.304-38.304h96.171l124.489-520.889c4.124-17.25 19.536-29.404 37.258-29.404h596.273c17.608 0 32.954 12.002 37.18 29.086l93.209 376.66c2.82 11.438 0.228 23.53-7.024 32.812zM862.527 366.297h-536.071l-71.706 300.040h682.010l-74.232-300.040zM347.294 234.772c-70.404 0-127.681-57.278-127.681-127.681s57.278-127.681 127.681-127.681 127.681 57.278 127.681 127.681-57.278 127.681-127.681 127.681zM347.294 56.019c-28.166 0-51.072 22.906-51.072 51.072s22.906 51.072 51.072 51.072 51.072-22.906 51.072-51.072-22.906-51.072-51.072-51.072z" />
<glyph unicode="&#xe90b;" glyph-name="support" d="M328.48 960c-142.404 0-258.256-115.854-258.256-258.256v-70.42c0-22.492 8.758-43.636 24.66-59.538 15.416-15.414 35.764-24.092 57.482-24.61 6.86-21.836 17.68-41.934 31.61-59.454-28.326-19.984-52.476-45.774-70.44-75.44-4.352-7.184-2.054-16.536 5.132-20.886 2.462-1.49 5.178-2.2 7.862-2.2 5.144 0 10.164 2.612 13.024 7.332 16.54 27.314 39.042 50.896 65.484 68.784 32.726-29.502 76.024-47.488 123.448-47.488 47.428 0 90.73 17.99 123.456 47.496 11.696-7.906 22.662-16.926 32.68-26.944 12.624-12.624 23.65-26.696 32.772-41.824 2.854-4.736 7.884-7.356 13.038-7.356 2.672 0 5.382 0.706 7.84 2.186 7.192 4.338 9.506 13.684 5.17 20.876-10.392 17.236-22.946 33.26-37.312 47.626-10.232 10.23-21.336 19.542-33.126 27.848 13.926 17.518 24.744 37.612 31.602 59.444 19.628 0.476 37.614 7.682 51.72 19.42v-16.528c0-17.748-14.44-32.19-32.19-32.19-8.4 0-15.208-6.81-15.208-15.208s6.808-15.208 15.208-15.208c34.52 0 62.606 28.086 62.606 62.606v151.676c-0.006 142.402-115.86 258.256-258.262 258.256zM116.388 593.29c-10.156 10.156-15.752 23.664-15.752 38.030 0 26.24 18.894 48.138 43.79 52.836-0.328-4.49-0.5-9.020-0.5-13.59v-68.188c0-8.164 0.54-16.206 1.572-24.092-10.972 1.822-21.086 6.984-29.11 15.004zM482.622 602.38c0-84.994-69.148-154.14-154.14-154.14s-154.14 69.146-154.14 154.138v65.134c3.152-0.208 6.31-0.35 9.478-0.35 48.724 0 93.806 25.162 119.96 64.908 26.154-39.748 71.236-64.908 119.96-64.908 20.384 0 40.274 4.296 58.59 12.512 0.176-3.016 0.292-6.046 0.292-9.104v-68.19zM176.806 697.822c12.91 72.032 75.986 126.886 151.678 126.886 70.992 0 130.894-48.256 148.714-113.68-16.36-8.814-34.638-13.45-53.454-13.45-46.748 0-89.238 29.394-105.73 73.14-2.234 5.922-7.9 9.842-14.23 9.842s-11.998-3.922-14.23-9.842c-16.492-43.748-58.982-73.14-105.73-73.14-2.348 0-4.686 0.1-7.018 0.244zM511.466 578.296c1.032 7.886 1.572 15.922 1.572 24.084v68.188c0 4.574-0.174 9.11-0.502 13.602 10.558-1.972 20.276-7.058 28.036-14.818 10.156-10.156 15.752-23.662 15.752-38.030-0.004-26.614-19.438-48.76-44.858-53.026zM556.32 696.1c-13.814 11.51-30.764 18.212-48.792 19.258-20.066 80.19-92.726 139.764-179.048 139.764s-158.98-59.574-179.048-139.764c-18.49-1.084-35.396-8.158-48.798-19.312v5.696c0.004 125.632 102.214 227.842 227.846 227.842s227.84-102.21 227.84-227.84v-5.644zM429.736 621.688c-8.794 8.798-20.49 13.642-32.93 13.642s-24.134-4.844-32.93-13.64c-5.94-5.94-5.938-15.568 0-21.508 5.942-5.94 15.566-5.938 21.508 0 3.050 3.052 7.108 4.73 11.422 4.73 4.316 0 8.372-1.68 11.424-4.73 2.968-2.968 6.862-4.454 10.752-4.454 3.892 0 7.784 1.484 10.754 4.454 5.94 5.94 5.94 15.57 0 21.506zM293.090 621.69c-8.796 8.796-20.49 13.64-32.93 13.64s-24.134-4.844-32.93-13.64c-5.94-5.94-5.938-15.568 0-21.508 5.942-5.94 15.568-5.938 21.508 0 3.050 3.052 7.108 4.73 11.422 4.73s8.37-1.68 11.422-4.73c2.97-2.968 6.862-4.454 10.756-4.454 3.89 0.002 7.782 1.486 10.754 4.454 5.938 5.94 5.938 15.57-0.002 21.508zM375.794 541.178c-5.94 5.942-15.568 5.94-21.508 0-14.23-14.226-37.382-14.226-51.608 0-5.94 5.94-15.568 5.94-21.506 0-5.94-5.94-5.94-15.568 0-21.506 13.044-13.044 30.174-19.566 47.31-19.566 17.132 0 34.268 6.524 47.31 19.566 5.942 5.94 5.942 15.566 0.002 21.506zM630.236 234.132c8.4 0 15.208 6.81 15.208 15.208v65.216c-0.002 33.488-27.234 60.73-60.706 60.73h-512.514c-33.474 0-60.706-27.242-60.706-60.728v-317.828c-0.002-33.488 27.23-60.73 60.706-60.73h512.514c33.474 0 60.706 27.242 60.706 60.728v201.916c0 8.398-6.808 15.208-15.208 15.208s-15.208-6.81-15.208-15.208v-201.916c0-16.714-13.588-30.312-30.29-30.312h-512.514c-16.702 0-30.29 13.598-30.29 30.312v317.828c0 16.714 13.588 30.312 30.29 30.312h512.514c16.7 0 30.29-13.598 30.29-30.312v-65.216c0-8.398 6.806-15.208 15.208-15.208zM328.48 219.514c-35.22 0-63.872-28.654-63.872-63.872 0-35.22 28.652-63.872 63.872-63.872 35.218 0 63.872 28.652 63.872 63.872s-28.652 63.872-63.872 63.872zM328.48 122.188c-18.448 0-33.456 15.008-33.456 33.456s15.008 33.456 33.456 33.456c18.446 0 33.456-15.010 33.456-33.456 0-18.45-15.008-33.456-33.456-33.456zM808.638 959.004c-46.078 0-89.552-14.028-125.724-40.57-6.772-4.968-8.234-14.486-3.264-21.258 4.97-6.77 14.488-8.234 21.256-3.264 30.918 22.686 68.172 34.678 107.732 34.678 95.628 0 173.428-71.898 173.428-160.276 0-88.376-77.8-160.276-173.428-160.276-14.094 0-28.146 1.578-41.766 4.69-5.772 1.316-11.782-0.832-15.408-5.508-13.31-17.168-41.998-27.146-66.626-32.472 10.592 18.564 16.902 37.79 20.614 53.030 1.446 5.924-0.79 12.14-5.678 15.79-41.030 30.628-64.564 76.096-64.564 124.746 0 34.524 11.698 67.41 33.826 95.098 5.244 6.562 4.176 16.13-2.386 21.374-6.564 5.246-16.132 4.178-21.376-2.386-26.482-33.136-40.48-72.588-40.48-114.088 0-54.994 24.87-106.446 68.594-142.676-5.656-19.188-15.732-42.696-33.428-60.392-4.462-4.46-5.704-11.216-3.122-16.972 2.46-5.492 7.908-8.99 13.874-8.988 0.29 0 0.582 0.008 0.874 0.024 3.446 0.196 80.162 5.012 117.4 41.936 13.028-2.404 26.326-3.622 39.654-3.622 112.4 0 203.842 85.544 203.842 190.692 0 105.146-91.444 190.69-203.844 190.69zM760.256 762.188c-5.716 3.386-13.076 2.646-18.024-1.774-5.568-4.976-6.506-13.528-2.432-19.71 7.212-10.976 24.62-7.612 27.474 5.112 1.412 6.304-1.45 13.070-7.018 16.372zM871.996 762.552c-5.728 3.038-12.94 2.092-17.648-2.39-5.266-5.020-6.234-13.406-2.154-19.458 7.4-11.218 25.344-7.352 27.618 5.842 1.1 6.384-2.080 12.966-7.816 16.006zM814.012 762.72c-5.478 2.758-12.294 1.874-16.896-2.176-4.902-4.312-6.472-11.54-3.854-17.508 2.828-6.446 9.988-10.214 16.902-8.802 6.134 1.28 10.966 6.204 12.014 12.4 1.098 6.508-2.292 13.128-8.166 16.086z" />
<glyph unicode="&#xe90c;" glyph-name="undo" d="M768.001 768h-448.001v-64.001h447.999c105.874 0 192-86.124 192-192s-86.126-192-192-192h-607.999v128l-160-159.998 160-160v128h608.001c141.156 0 256.001 114.843 256.001 256.001s-114.845 255.999-256.001 255.999z" />
<glyph unicode="&#xe90d;" glyph-name="user" d="M866-64c-22.092 0-40 17.908-40 40 0 156.598-127.402 284-284 284h-60c-156.598 0-284-127.402-284-284 0-22.092-17.908-40-40-40s-40 17.908-40 40c0 200.71 163.29 364 364 364h60c200.71 0 364-163.29 364-364 0-22.092-17.908-40-40-40zM508 420c-148.878 0-270 121.122-270 270s121.122 270 270 270 270-121.122 270-270-121.122-270-270-270zM508 880c-104.766 0-190-85.234-190-190s85.234-190 190-190 190 85.234 190 190-85.234 190-190 190z" />
<glyph unicode="&#xe90e;" glyph-name="exchange" d="M960 320.352c0-53.023-42.984-96-96-96h-754.75l126.398 126.398-45.25 45.25-181.023-181.023c-12.492-12.5-12.492-32.758 0-45.25l181.023-181.023 45.25 45.25-126.398 126.398h754.75c88.32 0.102 159.891 71.68 160 160v128h-64zM64 576.352c0 53.016 42.984 96 96 96h754.75l-126.398-126.398 45.25-45.25 181.023 181.023c12.492 12.5 12.492 32.75 0 45.25l-181.023 181.023-45.25-45.25 126.398-126.398h-754.75c-88.32-0.109-159.891-71.68-160-160v-128h64z" />
<glyph unicode="&#xe90f;" glyph-name="chat" d="M914.286 959.996h-804.572c-60.594 0-109.714-49.121-109.714-109.714v-585.143c0-60.594 49.121-109.714 109.714-109.714h129.829l-19.894-178.834c-2.218-20.076 12.259-38.147 32.336-40.365 10.367-1.144 20.73 2.192 28.483 9.169l233.398 210.030h400.42c60.594 0 109.714 49.121 109.714 109.714v585.143c0 60.594-49.121 109.714-109.714 109.714zM950.856 265.138c0-20.199-16.374-36.572-36.572-36.572h-414.463c-9.036-0.002-17.751-3.351-24.467-9.399l-172.397-155.173 13.787 123.941c2.241 20.072-12.212 38.162-32.286 40.406-1.35 0.15-2.706 0.227-4.065 0.225h-170.678c-20.199 0-36.572 16.374-36.572 36.572v585.143c0 20.199 16.374 36.572 36.572 36.572h804.572c20.199 0 36.572-16.374 36.572-36.572v-585.143z" />
<glyph unicode="&#xe910;" glyph-name="right" d="M946.137 467.283l-845.922 489.745c-6.856 3.963-15.36 3.963-22.306 0-6.856-3.963-11.13-11.309-11.13-19.277v-979.489c0-7.97 4.274-15.316 11.13-19.277 3.429-1.96 7.302-2.982 11.13-2.982 3.873 0 7.703 0.979 11.176 2.982l845.922 489.745c6.856 4.007 11.086 11.353 11.086 19.277s-4.23 15.314-11.086 19.275z" />
<glyph unicode="&#xe911;" glyph-name="placeholder" d="M512 960c-211.776 0-384-172.224-384-384 0-266.176 346.624-615.872 361.344-630.656 6.272-6.208 14.464-9.344 22.656-9.344s16.384 3.136 22.656 9.344c14.72 14.784 361.344 364.48 361.344 630.656 0 211.776-172.224 384-384 384zM512 14.272c-76.416 81.792-320 358.4-320 561.728 0 176.448 143.552 320 320 320s320-143.552 320-320c0-203.136-243.584-479.936-320-561.728zM512 768c-105.856 0-192-86.144-192-192s86.144-192 192-192c105.856 0 192 86.144 192 192s-86.144 192-192 192zM512 448c-70.592 0-128 57.408-128 128s57.408 128 128 128 128-57.408 128-128-57.408-128-128-128z" />
<glyph unicode="&#xe912;" glyph-name="flash" d="M426.667-64c-23.936 0-42.667 18.731-42.667 42.667 0 0.768 0.043 3.627 0.128 4.395l40.149 379.605h-210.944c-23.936 0-42.667 18.731-42.667 42.667 0 9.088 3.115 18.432 8.576 25.643l340.608 510.976c8.661 11.648 21.461 18.048 34.816 18.048 23.936 0 42.667-18.731 42.667-42.667 0-0.853-0.043-4.224-0.128-5.077l-39.893-336.256h253.355c23.936 0 42.667-18.731 42.667-42.667 0-9.003-3.115-18.347-8.533-25.6l-383.531-554.027c-8.448-11.307-21.248-17.707-34.603-17.707zM554.795 917.291l-340.779-511.019 233.984-0.939c6.059 0 11.819-2.56 15.872-7.083s6.016-10.496 5.333-16.512l-42.667-403.2 384.128 554.795c0 0.128 0 0.171 0 0.171l-277.333-0.171c-6.101 0-11.904 2.603-15.957 7.168s-5.973 10.624-5.248 16.683z" />
<glyph unicode="&#xe913;" glyph-name="fitness" d="M479.978 223.997h-50.75l-54.846 54.846c5.952 12.543 9.6 26.367 9.6 41.15 0 52.926-43.070 95.996-95.996 95.996s-95.996-43.070-95.996-95.996 43.070-95.996 95.996-95.996c14.783 0 28.607 3.648 41.15 9.6l64.253-64.253c5.952-5.952 14.079-9.344 22.591-9.344h63.997c17.663 0 31.999 14.335 31.999 31.999s-14.335 31.999-31.999 31.999zM287.987 287.994c-17.663 0-31.999 14.399-31.999 31.999s14.335 31.999 31.999 31.999c17.663 0 31.999-14.399 31.999-31.999s-14.335-31.999-31.999-31.999zM955.349 155.52c2.816 11.775 4.608 23.871 4.608 36.478 0 70.589-46.206 129.914-109.691 151.097 92.732 175.48 107.131 404.27 109.307 462.763 37.502 35.262 58.493 71.229 60.157 74.109 8.832 15.359 3.52 34.942-11.839 43.71-15.295 8.896-34.878 3.584-43.646-11.839-0.704-1.088-65.341-111.867-164.281-111.867-17.663 0-31.999-14.335-31.999-31.999s14.335-31.999 31.999-31.999c34.494 0 65.341 9.024 92.348 22.399-7.808-93.884-32.895-274.1-110.715-406.382h-207.351c-15.103 135.93-125.434 242.293-262.388 253.749l-43.454 130.234h51.582c17.663 0 31.999 14.335 31.999 31.999s-14.335 31.999-31.999 31.999h-191.991c-17.663 0-31.999-14.335-31.999-31.999s14.335-31.999 31.999-31.999h72.957l44.094-132.346c-138.362-20.927-245.045-139.514-245.045-283.635 0-63.357 21.183-121.403 55.933-169.016-32.895-15.231-55.933-48.382-55.933-86.972 0-52.926 43.070-95.996 95.996-95.996 48.19 0 87.804 35.774 94.588 82.108 30.591-11.072 63.037-18.111 97.404-18.111h511.977c12.607 0 24.703 1.792 36.478 4.608 11.903-39.55 48.19-68.605 91.516-68.605 52.926 0 95.996 43.070 95.996 95.996 0 43.326-29.055 79.676-68.605 91.516zM95.996 32.006c-17.663 0-31.999 14.399-31.999 31.999s14.335 31.999 31.999 31.999c17.663 0 31.999-14.399 31.999-31.999s-14.335-31.999-31.999-31.999zM799.964 96.003h-511.977c-123.514 0-223.99 100.475-223.99 223.99s100.475 223.99 223.99 223.99 223.99-100.475 223.99-223.99c0-17.663 14.335-31.999 31.999-31.999h255.989c52.926 0 95.996-43.070 95.996-95.996s-43.070-95.996-95.996-95.996zM927.958 32.006c-17.663 0-31.999 14.399-31.999 31.999 0 0.256 0.128 0.64 0.192 0.96 11.327 8.64 21.439 18.687 30.143 29.951 17.663 1.024 33.662-13.055 33.662-30.911 0-17.599-14.335-31.999-31.999-31.999z" />
<glyph unicode="&#xe914;" glyph-name="smartwatch" d="M790.033 763.508l-89.414 178.827c-5.44 10.817-16.513 17.665-28.61 17.665l-320.020-0.064c-12.097 0-23.169-6.848-28.61-17.665l-89.414-178.763c-24.386-9.025-41.987-32.002-41.987-59.524v-512.032c0-27.522 17.601-50.499 41.987-59.524l89.414-178.699c5.44-10.817 16.513-17.665 28.61-17.665l320.020-0.064c12.097 0 23.169 6.848 28.61 17.665l89.414 178.763c24.386 9.025 41.987 32.002 41.987 59.524v512.032c0 27.522-17.601 50.499-41.987 59.524zM371.767 895.932l280.466 0.064 64.004-128.008h-408.474l64.004 127.944zM255.984 703.984h512.032v-192.012h-112.007l-86.405 115.207c-7.296 9.665-19.457 14.273-31.234 12.289-11.841-2.112-21.569-10.753-25.026-22.273l-72.773-242.703-59.972 119.815c-5.44 10.817-16.513 17.665-28.61 17.665h-96.006v192.012zM652.233-0.060l-280.53 0.064-64.004 127.944h408.474l-63.94-128.008zM255.984 191.952v256.016h76.229l87.109-174.347c5.504-10.881 16.641-17.665 28.674-17.665 0.896 0 1.792 0.064 2.752 0.128 13.057 1.152 24.13 10.113 27.906 22.657l77.829 259.28 57.924-77.253c6.016-8.065 15.553-12.801 25.602-12.801h128.008l0.064-256.016h-512.096z" />
<glyph unicode="&#xe915;" glyph-name="muscles" d="M512 960c-59.456 0-116.352-10.688-169.472-29.44-0.32-0.064-0.576-0.192-0.832-0.32-96.128-34.048-178.944-95.872-239.040-176-0.064-0.128-0.192-0.256-0.32-0.448-63.936-85.44-102.336-191.104-102.336-305.792 0-282.304 229.696-512 512-512s512 229.696 512 512-229.696 512-512 512zM910.144 652.48c24-46.528 40.128-97.728 46.528-151.936l-64.256 70.144 17.728 81.792zM861.056 728.128l-31.424-144.832-100.416-49.152-184.704 134.592v124.864l131.648 70.784c72.96-28.8 136.512-76.032 184.896-136.256zM687.808 485.12l-70.4-197.12h-210.752l-69.376 197.056 175.296 127.808 175.232-127.744zM512 896c25.664 0 50.624-2.624 75.136-6.784l-74.496-40.064-74.496 40.256c24.064 3.968 48.64 6.592 73.856 6.592zM348.928 864.832l131.648-71.040v-125.056l-184.64-134.592-100.928 49.28-31.36 145.664c48.512 60.032 112.256 107.072 185.28 135.744zM114.432 653.632l17.856-82.88-64.96-70.592c6.336 54.784 22.72 106.496 47.104 153.472zM142.656 194.944c-41.792 60.8-68.992 132.288-76.48 209.536l108.352 117.696 98.816-48.32 74.432-211.392-62.784-75.392-142.336 7.872zM199.36 127.68l75.776-4.16 22.016-68.48c-35.904 19.712-68.672 44.288-97.792 72.64zM626.112 15.296c-36.48-9.664-74.624-15.296-114.112-15.296-47.744 0-93.696 7.68-136.896 21.568l-40.256 125.376 64.128 77.056h226.176l63.040-74.688-62.080-134.016zM711.552 47.488l36.352 78.528 92.416 18.24c-36.608-39.552-80.128-72.448-128.768-96.768zM738.176 189.312l-61.888 73.28 75.392 211.264 98.368 48.192 107.712-117.568c-6.4-66.624-27.84-128.832-60.352-183.744l-159.232-31.424z" />
<glyph unicode="&#xe916;" glyph-name="ball" d="M998.931 498.609l-180.088 40.318-19.135 168.696c-1.664 14.847-13.311 26.559-28.159 28.159l-165.945 18.751-19.775 177.016c-1.024 8.768-5.568 16.767-12.671 22.015-7.040 5.312-15.935 7.552-24.703 5.888l-180.984-31.999c-11.583-2.048-21.055-10.176-24.831-21.311l-178.616-534.57-107.835-107.835c-36.222-36.22-56.189-84.474-56.189-135.736s19.967-99.516 56.253-135.738c36.222-36.286 84.476-56.253 135.738-56.253s99.516 19.967 135.738 56.253l107.835 107.835 534.568 178.616c10.816 3.648 18.943 12.799 21.247 23.999l31.999 158.329c3.392 17.021-7.424 33.726-24.447 37.566zM591.589 691.814l147.385-16.703 16.767-147.449-402.030-289.907-52.030 52.030 289.907 402.030zM397.294 867.806l128.698 22.719 17.407-156.153-287.539-398.764-27.263 27.263 168.696 504.935zM101.499 37.509c-24.191 24.191-37.502 56.315-37.502 90.492s13.311 66.301 37.502 90.492l180.984-180.984c-48.382-48.382-132.602-48.382-180.984 0zM327.729 82.755l-180.984 180.984 45.246 45.31 181.048-181.048-45.31-45.246zM932.246 333.496l-505.385-168.888-27.263 27.263 397.102 286.387 157.689-35.262-22.143-109.499z" />
<glyph unicode="&#xe917;" glyph-name="sneakers" d="M959.932 255.284c0 0.256 0.128 0.448 0.128 0.704v65.924c0 69.316-46.083 132.168-110.535 152.266l-199.372 73.413c9.473 12.545 9.089 30.21-2.368 41.667l-90.502 90.502c-12.481 12.481-32.77 12.481-45.251 0v56.26h32.002c17.665 0 32.002 14.337 32.002 32.002v128.008c0 17.665-14.337 32.002-32.002 32.002h-512.032c-17.665 0-32.002-14.337-32.002-32.002v-128.008c0-17.665 14.337-32.002 32.002-32.002h32.002v-82.757l-54.659-54.595c-5.952-6.016-9.345-14.145-9.345-22.657v-192.012c0-52.547 25.794-98.822 64.964-128.008-39.17-29.186-64.964-75.461-64.964-128.008 0-88.198 71.812-160.010 160.010-160.010 77.253 0 141.897 55.043 156.746 128.008h38.466c14.913-72.965 79.557-128.008 156.81-128.008s141.897 55.043 156.746 128.008h38.466c14.849-72.965 79.493-128.008 156.746-128.008 88.198 0 160.010 71.812 160.010 160.010 0.064 52.163-25.346 98.054-64.068 127.304zM534.689 611.914l45.251-45.251-67.908-67.908c-12.481-12.481-32.77-12.481-45.251 0s-12.481 32.77 0 45.251l35.074 35.074c0.512 0.448 0.896 0.896 1.344 1.344l31.49 31.49zM64.004 864.026h448.028v-64.004h-448.028v64.004zM160.010 31.974c-52.931 0-96.006 43.075-96.006 96.006s43.075 96.006 96.006 96.006 96.006-43.075 96.006-96.006-43.075-96.006-96.006-96.006zM355.286 159.982h-38.53c-4.864 23.809-15.425 45.315-29.57 64.004h97.67c-14.145-18.689-24.77-40.195-29.57-64.004zM512.032 31.974c-52.931 0-96.006 43.075-96.006 96.006s43.075 96.006 96.006 96.006 96.006-43.075 96.006-96.006-43.075-96.006-96.006-96.006zM707.308 159.982h-38.466c-4.864 23.809-15.425 45.315-29.57 64.004h97.67c-14.209-18.689-24.834-40.195-29.634-64.004zM160.010 287.99c-52.931 0-96.006 43.075-96.006 96.006v178.763l54.659 54.659c5.952 5.952 9.345 14.081 9.345 22.593v96.006h320.020v-120.264l-26.498-26.498c-37.442-37.442-37.442-98.31 0-135.752 18.689-18.689 43.267-28.034 67.908-28.034s49.155 9.345 67.908 28.034l43.907 43.907 227.726-83.781c39.426-12.353 67.076-50.115 67.076-91.718v-33.922h-736.046zM864.054 31.974c-52.931 0-96.006 43.075-96.006 96.006s43.075 96.006 96.006 96.006 96.006-43.075 96.006-96.006-43.075-96.006-96.006-96.006z" />
<glyph unicode="&#xe918;" glyph-name="dumbell" d="M1014.641 498.096l-90.674 90.482 67.893 67.829c12.478 12.478 12.478 32.763 0 45.241l-226.269 226.269c-12.478 12.478-32.763 12.478-45.241 0l-67.893-67.893-90.482 90.546c-12.478 12.478-32.763 12.478-45.241 0l-113.070-113.134c-12.478-12.478-12.478-32.763 0-45.241l203.936-203.936-235.931-235.931-203.936 203.936c-12.478 12.478-32.763 12.478-45.241 0l-113.134-113.070c-12.478-12.478-12.478-32.763 0-45.241l90.482-90.482-67.829-67.893c-12.478-12.478-12.478-32.763 0-45.241l226.269-226.269c6.271-6.271 14.462-9.343 22.652-9.343s16.381 3.136 22.652 9.343l67.893 67.893 90.482-90.482c6.143-6.271 14.334-9.407 22.524-9.407s16.381 3.136 22.652 9.343l113.134 113.134c12.478 12.478 12.478 32.763 0 45.241l-203.296 203.296 235.931 235.931 203.296-203.296c6.271-6.271 14.462-9.343 22.652-9.343s16.381 3.136 22.652 9.343l113.134 113.134c12.478 12.478 12.478 32.763 0 45.241zM280.868 35.96l-181.028 181.028 45.241 45.241 181.028-181.028-45.241-45.241zM552.378 81.201l-67.893-67.893-407.232 407.232 67.893 67.893 407.232-407.232zM743.004 860.024l181.028-181.028-45.241-45.241-181.028 181.028 45.241 45.241zM878.727 407.55l-407.232 407.232 67.893 67.893 407.232-407.232-67.893-67.893z" />
<glyph unicode="&#xe919;" glyph-name="quote" d="M0 374.857h219.428l-146.287-292.57h219.428l146.287 292.57v438.857h-438.857zM585.143 813.713v-438.857h219.428l-146.287-292.57h219.428l146.287 292.57v438.857z" />
<glyph unicode="&#xe91a;" glyph-name="wall-clock" d="M512 960c-282.31 0-512-229.678-512-512s229.69-512 512-512c282.322 0 512 229.678 512 512s-229.69 512-512 512zM512 10.744c-241.1 0-437.256 196.156-437.256 437.256s196.156 437.256 437.256 437.256 437.256-196.154 437.256-437.244c0-241.112-196.156-437.268-437.256-437.268zM686.404 448h-161.946v224.234c0 20.642-16.73 37.372-37.372 37.372s-37.372-16.73-37.372-37.372v-261.606c0-20.642 16.73-37.372 37.372-37.372h199.318c20.642 0 37.372 16.73 37.372 37.372s-16.73 37.372-37.372 37.372z" />
</font>
</defs>
</svg>
